Golmaal Again (2017) - 720p - V2 - DesiPDVD-Rip - Hindi - x264 - ...

  • Category Movies
  • Type Bollywood
  • Language Hindi
  • Total size 1.1 GB
  • Uploaded By Mafiaking
  • Downloads 23044
  • Last checked 3 weeks ago
  • Date uploaded 4 weeks ago
  • Seeders 146
  • Leechers 161

Golmaal Again

DramaComedy

A story based on 4 friends who always stuck in some trouble and everything is solved in a funny way.

Infohash : 6584DDBF83F562F368E1179E1DE99D4ED03924BD










Quote:







Ratings: 5.7/10

Genere: Action, Comedy, Fantasy

General
Complete name : Golmaal Again (2017) - 720p - V2 - DesiPDVD-Rip - Hindi - x264 - AC3 - Mafiaking - M2Tv.mkv
Format : Matroska
Format version : Version 4 / Version 2
File size : 1.09 GiB
Duration : 2 h 27 min
Overall bit rate : 1 055 kb/s
Movie name : Golmaal Again (2017) - 720p - V2 - DesiPDVD-Rip - Hindi - x264 - AC3 - Mafiaking - M2Tv

Video
ID : 1
Format : AVC
Format/Info : Advanced Video Codec
Format profile : [email protected]
Format settings, CABAC : Yes
Format settings, RefFrames : 4 frames
Codec ID : V_MPEG4/ISO/AVC
Duration : 2 h 27 min
Bit rate : 925 kb/s
Width : 1 280 pixels
Height : 544 pixels
Display aspect ratio : 2.35:1
Frame rate mode : Constant
Frame rate : 29.970 FPS
Color space : YUV
Chroma subsampling : 4:2:0
Bit depth : 8 bits
Scan type : Progressive
Bits/(Pixel*Frame) : 0.044
Stream size : 978 MiB (88%)
Title : Mafiaking
Language : Hindi
Default : Yes
Forced : No

Audio
ID : 2
Format : AC-3
Format/Info : Audio Coding 3
Format settings, Endianness : Big
Codec ID : A_AC3
Duration : 2 h 27 min
Bit rate mode : Constant
Bit rate : 128 kb/s
Channel(s) : 6 channels
Channel positions : Front: L C R, Side: L R, LFE
Sampling rate : 48.0 kHz
Frame rate : 31.250 FPS
Bit depth : 16 bits
Compression mode : Lossy
Stream size : 135 MiB (12%)
Title : Mafiaking
Language : Hindi
Service kind : Complete Main
Default : Yes
Forced : No

SAMPLE WITH IN TORRENT





**To View Image In Full Size Click on Thumbnails**

Files:

Golmaal Again (2017) - 720p - V2 - DesiPDVD-Rip - Hindi - x264 - AC3 - Mafiaking - M2Tv
  • Golmaal Again (2017) - 720p - V2 - DesiPDVD-Rip - Hindi - x264 - AC3 - Mafiaking - M2Tv.mkv (1.1 GB)
  • SaMple.mkv (6.3 MB)

Comments

Code:

  • udp://tracker.coppersurfer.tk:6969/announce
  • udp://thetracker.org:80/announce
  • udp://tracker.leechers-paradise.org:6969/announce
  • udp://eddie4.nl:6969/announce
  • udp://zer0day.ch:1337/announce
  • udp://tracker.sktorrent.net:6969/announce
  • udp://9.rarbg.me:2710/announce
  • udp://9.rarbg.to:2710/announce
  • udp://torrent.gresille.org:80/announce
  • udp://tracker.aletorrenty.pl:2710/announce
  • udp://tracker.piratepublic.com:1337/announce
  • udp://tracker.opentrackr.org:1337/announce
  • udp://explodie.org:6969/announce
  • udp://p4p.arenabg.ch:1337/announce