Roman.J.Israel.Esq.2017.CAM.XViD-26k

  • Category Movies
  • Type Divx/Xvid
  • Language English
  • Total size 1.5 GB
  • Uploaded By mazemaze16
  • Downloads 268
  • Last checked 2 hours ago
  • Date uploaded 4 days ago
  • Seeders 29
  • Leechers 11

Roman J. Israel, Esq.

Drama

Hard-nosed liberal lawyer Roman J. Israel has been fighting the good fight forever while others take the credit. When his partner, the firm’s frontman, has a heart attack, Israel suddenly takes on that role. He soon discovers some unsettling truths about the firm--truths that conflict with his values of helping the poor and dispossessed--and finds himself in an existential crisis that leads to extreme actions.

Infohash : CFC7AFBCCA03B364773FAE425C846542C318BEE0

Roman.J.Israel.Esq.2017.CAM.XViD-26k





http://www.imdb.com/title/tt6000478/



Plot:

Roman J. Israel, Esq., a driven, idealistic defense attorney, finds himself in a tumultuous series of events that lead to a crisis and the necessity for extreme action.


Sources - VIDEO: A Friend / Another Friend ....Thanks :P
AUDIO: A Friend / Another Friend ....Thanks :P



Complete name : Roman.J.Israel.Esq.2017.CAM.XViD-26k.avi
Format : AVI
Format/Info : Audio Video Interleave
File size : 1.40 GiB
Duration : 1h 56mn
Overall bit rate : 1 722 Kbps
Writing library : VirtualDub build 32839/release

Video
ID : 0
Format : MPEG-4 Visual
Format profile : Advanced [email protected]
Format settings, BVOP : 2
Format settings, QPel : Yes
Format settings, GMC : No warppoints
Format settings, Matrix : Default (H.263)
Muxing mode : Packed bitstream
Codec ID : XVID
Codec ID/Hint : XviD
Duration : 1h 56mn
Bit rate : 1 582 Kbps
Width : 720 pixels
Height : 400 pixels
Display aspect ratio : 16:9
Frame rate : 30.000 fps
Color space : YUV
Chroma subsampling : 4:2:0
Bit depth : 8 bits
Scan type : Progressive
Compression mode : Lossy
Bits/(Pixel*Frame) : 0.183
Stream size : 1.29 GiB (92%)
Writing library : XviD 67

Audio
ID : 1
Format : MPEG Audio
Format version : Version 1
Format profile : Layer 3
Mode : Joint stereo
Mode extension : MS Stereo
Codec ID : 55
Codec ID/Hint : MP3
Duration : 1h 56mn
Bit rate mode : Constant
Bit rate : 128 Kbps
Channel(s) : 2 channels
Sampling rate : 48.0 KHz
Compression mode : Lossy
Delay relative to video : 4ms
Stream size : 107 MiB (7%)
Alignment : Split accross interleaves
Interleave, duration : 33 ms (1.00 video frame)
Interleave, preload duratio : 500 ms





Notes -

Took the source we were passed and went to work crop, resize, denoise and few other tweaks then jsut remuxed audio then we took another video we had and cut the end off it and added to the full vid as the vid we used for ending was missing 12 min from middle.. ENJOY ...






Screens:






Files:

Roman.J.Israel.Esq.2017.CAM.XViD-26k
  • NFO.NFO (9.8 KB)
  • Roman.J.Israel.Esq.2017.CAM.XViD-26k.avi (1.4 GB)
  • sample 1.avi (22.7 MB)
  • sample 2.avi (27.3 MB)

Comments

Code:

  • udp://tracker.ilibr.org:6969/announce
  • udp://9.rarbg.com:2710/announce
  • udp://9.rarbg.to:2710/announce
  • udp://tracker.leechers-paradise.org:6969/announce
  • udp://eddie4.nl:6969/announce
  • udp://ipv4.tracker.harry.lu:80/announce
  • udp://explodie.org:6969/announce
  • udp://p4p.arenabg.com:1337/announce
  • udp://p4p.arenabg.ch:1337/announce
  • udp://tracker.zer0day.to:1337/announce
  • udp://tracker.opentrackr.org:1337/announce
  • udp://tracker.ilibr.org:80/announce
  • udp://tracker.coppersurfer.tk:6969/announce
  • udp://tracker.coppersurfer.tk:6969
  • udp://9.rarbg.me:2710/announce