18+.M.F.A.2017.720p.BRRip.AAC.ESub.LLG

  • Category Movies
  • Type HD
  • Language English
  • Total size 857.8 MB
  • Uploaded By Creampie
  • Downloads 2410
  • Last checked 1 day ago
  • Date uploaded 6 days ago
  • Seeders 8
  • Leechers 3

The Edge of Seventeen

DramaComedy

Two high school girls are best friends until one dates the other's older brother, who is totally his sister's nemesis.

Infohash : 0B3B32132B892C9A6E5E7E6BC68CCED344FEA910

******************************Thumbnail:**********************



******************************Screenshots:********************

Screenshot 1


Screenshot 2


Screenshot 3


Screenshot 4


Screenshot 5

**************************************************************

Complete name : 18+.M.F.A.2017.720p.BRRip.AAC.ESub.LLG.mp4
Format : MPEG-4
Format profile : Base Media
Codec ID : isom (isom/iso2/avc1/mp41)
File size : 833 MiB
Duration : 1 h 32 min
Overall bit rate : 1 264 kb/s
Writing application : Lavf57.56.101

Video
ID : 1
Format : AVC
Format/Info : Advanced Video Codec
Format profile : [email protected]
Format settings : CABAC / 4 Ref Frames
Format settings, CABAC : Yes
Format settings, RefFrames : 4 frames
Codec ID : avc1
Codec ID/Info : Advanced Video Coding
Duration : 1 h 32 min
Bit rate : 1 200 kb/s
Width : 1 280 pixels
Height : 688 pixels
Display aspect ratio : 1.85:1
Frame rate mode : Constant
Frame rate : 23.976 (23976/1000) FPS
Color space : YUV
Chroma subsampling : 4:2:0
Bit depth : 8 bits
Scan type : Progressive
Bits/(Pixel*Frame) : 0.057
Stream size : 786 MiB (94%)


Audio
ID : 2
Format : AAC
Format/Info : Advanced Audio Codec
Format profile : LC
Codec ID : mp4a-40-2
Duration : 1 h 32 min
Bit rate mode : Constant
Bit rate : 64.7 kb/s
Channel(s) : 2 channels
Channel positions : Front: L R
Sampling rate : 48.0 kHz
Frame rate : 46.875 FPS (1024 SPF)
Compression mode : Lossy
Stream size : 42.6 MiB (5%)
Language : English
Default : Yes
Alternate group : 1

Files:

18+.M.F.A.2017.720p.BRRip.AAC.ESub.LLG
  • English.srt (69.3 KB)
  • Sample.mp4 (25.0 MB)
  • 18+.M.F.A.2017.720p.BRRip.AAC.ESub.LLG.mp4 (832.7 MB)

Comments

Code:

  • udp://tracker.openbittorrent.com:80/announce
  • udp://tracker.opentrackr.org:1337/announce