Cut.Shoot.Kill.2017.UNRATED.1080p.WEB-DL.DD5.1.H.264.CRO-DIAMOND

  • Category Movies
  • Type HD
  • Language English
  • Total size 3.8 GB
  • Uploaded By dmd12
  • Downloads 123
  • Last checked 3 days ago
  • Date uploaded 1 week ago
  • Seeders 0
  • Leechers 0

Cut Shoot Kill

ThrillerHorrorAction

Serena Brooks, an ambitious young actress, signs on as the star of a horror film with a crew of backwoods filmmakers that have worked together for years. When the cast starts disappearing, Serena has to become her character if she wants to survive.

Infohash : 95D0F159699649A9E3082EFE46051EACB46AFB7F




Code:

General
Unique ID : 171331221744163845677646476424357052945 (0x80E5316AD7F410826A050342820B8211)
Complete name : Cut.Shoot.Kill.2017.UNRATED.1080p.WEB-DL.DD5.1.H.264.CRO-DIAMOND.mkv
Format : Matroska
Format version : Version 4 / Version 2
File size : 3.76 GiB
Duration : 1h 37mn
Overall bit rate : 5 523 Kbps
Movie name : CRO DIAMOND 1080p
Encoded date : UTC 2017-08-08 11:19:06
Writing application : mkvmerge v7.2.0 ('On Every Street') 64bit built on Oct 7 2014 18:52:30
Writing library : libebml v1.3.0 + libmatroska v1.4.1
DURATION : 01:34:01.101000000
NUMBER_OF_FRAMES : 1575
NUMBER_OF_BYTES : 44883
_STATISTICS_WRITING_APP : mkvmerge v7.2.0 ('On Every Street') 64bit built on Oct 7 2014 18:52:30
_STATISTICS_WRITING_DATE_UTC : 2017-08-08 11:19:06
_STATISTICS_TAGS : BPS DURATION NUMBER_OF_FRAMES NUMBER_OF_BYTES

Video
ID : 1
Format : AVC
Format/Info : Advanced Video Codec
Format profile : [email protected]
Format settings, CABAC : Yes
Format settings, ReFrames : 4 frames
Codec ID : V_MPEG4/ISO/AVC
Duration : 1h 37mn
Bit rate : 5 029 Kbps
Width : 1 920 pixels
Height : 1 032 pixels
Display aspect ratio : 1.85:1
Frame rate mode : Constant
Frame rate : 23.976 fps
Color space : YUV
Chroma subsampling : 4:2:0
Bit depth : 8 bits
Scan type : Progressive
Bits/(Pixel*Frame) : 0.106
Stream size : 3.42 GiB (91%)
Title : CRO DIAMOND 1080p
Language : English
Default : Yes
Forced : No
Color range : Limited
Color primaries : BT.709
Transfer characteristics : BT.709
Matrix coefficients : BT.709

Audio
ID : 2
Format : AC-3
Format/Info : Audio Coding 3
Mode extension : CM (complete main)
Format settings, Endianness : Big
Codec ID : A_AC3
Duration : 1h 37mn
Bit rate mode : Constant
Bit rate : 384 Kbps
Channel(s) : 6 channels
Channel positions : Front: L C R, Side: L R, LFE
Sampling rate : 48.0 KHz
Compression mode : Lossy
Stream size : 268 MiB (7%)
Language : English
Default : Yes
Forced : No

Text
ID : 3
Format : UTF-8
Codec ID : S_TEXT/UTF8
Codec ID/Info : UTF-8 Plain Text
Language : English
Default : No
Forced : No

Menu
00:00:00.000 : en:1
00:11:51.920 : en:2
00:22:21.507 : en:3
00:31:34.893 : en:4
00:41:27.151 : en:5
00:52:52.961 : en:6
01:03:16.000 : en:7
01:15:55.968 : en:8
01:33:58.633 : en:9

Files:

  • Cut.Shoot.Kill.2017.UNRATED.1080p.WEB-DL.DD5.1.H.264.CRO-DIAMOND.mkv (3.8 GB)

There are currently no comments. Feel free to leave one :)