Justice League 2017 1080p WEB-DL DD 5.1 x264 ESub

  • Category Movies
  • Type HD
  • Language English
  • Total size 2.0 GB
  • Uploaded By moviezworldz
  • Downloads 413
  • Last checked 1 week ago
  • Date uploaded 1 week ago
  • Seeders 20
  • Leechers 2

Justice League

ActionAdventureFantasyScience Fiction

Fueled by his restored faith in humanity and inspired by Superman's selfless act, Bruce Wayne and Diana Prince assemble a team of metahumans consisting of Barry Allen, Arthur Curry, and Victor Stone to face the catastrophic threat of Steppenwolf and the Parademons who are on the hunt for three Mother Boxes on Earth.

Infohash : F29BF823E0D3F6A50031F99856A5DBA209177D24




General
Format                      : Matroska
Format version              : Version 4 / Version 2
File size                   : 2.05 GiB
Duration                    : 2 h 0 min
Overall bit rate            : 2 440 kb/s

Video
ID                          : 1
Format                      : AVC
Format/Info                 : Advanced Video Codec
Format profile              : [email protected]
Format settings             : CABAC / 4 Ref Frames
Format settings, CABAC      : Yes
Format settings, ReFrames   : 4 frames
Codec ID                    : V_MPEG4/ISO/AVC
Duration                    : 2 h 0 min
Bit rate                    : 2 200 kb/s
Width                       : 1 920 pixels
Height                      : 1 080 pixels
Display aspect ratio        : 16:9
Frame rate mode             : Constant
Frame rate                  : 23.976 (24000/1001) FPS
Color space                 : YUV
Chroma subsampling          : 4:2:0
Bit depth                   : 8 bits
Scan type                   : Progressive
Bits/(Pixel*Frame)          : 0.044
Stream size                 : 1.83 GiB (89%)
Writing library             : x264 core 148 r2708 86b7198
Default                     : Yes
Forced                      : No

Audio
ID                          : 2
Format                      : AC-3
Format/Info                 : Audio Coding 3
Codec ID                    : A_AC3
Duration                    : 2 h 0 min
Bit rate mode               : Constant
Bit rate                    : 256 kb/s
Channel(s)                  : 6 channels
Channel positions           : Front: L C R, Side: L R, LFE
Sampling rate               : 48.0 kHz
Frame rate                  : 31.250 FPS (1536 SPF)
Bit depth                   : 16 bits
Compression mode            : Lossy
Stream size                 : 220 MiB (10%)
Language                    : English
Service kind                : Complete Main
Default                     : Yes
Forced                      : No

Text
ID                          : 3
Format                      : UTF-8
Codec ID                    : S_TEXT/UTF8
Codec ID/Info               : UTF-8 Plain Text
Duration                    : 1 h 49 min
Bit rate                    : 43 b/s
Count of elements           : 1279
Stream size                 : 35.3 KiB (0%)
Language                    : English
Default                     : Yes
Forced                      : No
















Files:

Justice League 2017 1080p WEB-DL DD 5.1 x264 ESub
  • Justice League 2017 1080p WEB-DL DD 5.1 x264 ESub.mkv (2.0 GB)

There are currently no comments. Feel free to leave one :)

Code:

  • udp://tracker.coppersurfer.tk:6969/announce
  • udp://tracker.leechers-paradise.org:6969/announce
  • udp://inferno.demonoid.pw:3391/announce
  • udp://tracker.tntvillage.scambioetico.org:2710/announce
  • udp://tracker.pirateparty.gr:6969/announce
  • udp://9.rarbg.com:2770/announce
  • udp://public.popcorn-tracker.org:6969/announce
  • udp://tracker.zer0day.to:1337/announce
  • http://bigfoot1942.sektori.org:6969/announce
  • udp://ipv4.tracker.harry.lu:80/announce
  • udp://shadowshq.yi.org:6969/announce
  • udp://tracker.vanitycore.co:6969/announce
  • udp://tracker.opentrackr.org:1337/announce
  • udp://explodie.org:6969/announce
  • udp://tracker.zer0day.to:1337/announce
  • udp://tracker.leechers-paradise.org:6969/announce
  • udp://coppersurfer.tk:6969/announce